Sign up | Log in
  Sites: 555   •   Trackers: 235,759   •   Active Torrents: 13,719,378   •   Files: 285.36M   •   Size: 17,362.00 TB   •   Peers: 43.30M  
 » 
 » 
Ellie Goulding - Burn  » 
Summary

Download in BitLord   Download .torrent  
or download .torrent from:


Rating Up (0) | Down (0)

You have to login to report as fake.

Trackers:     (aggregated from BitTorrent sites everywhere for reliability and speed)
Tracker up, last checked 1 hour ago
23 seeds, 2 leechers, 10 downloads
udp://tracker.publicbt.com:80/scrape
udp://tracker.publicbt.com:80/scrape: 23 seeds
Tracker up, last checked 1 hour ago
21 seeds, 0 leechers, 10 downloads
udp://tracker.openbittorrent.com:80/scrape
udp://tracker.openbittorrent.com:80/scrape: 21 seeds
Tracker up, last checked 1 hour ago
39 seeds, 0 leechers, 10 downloads
udp://tracker.istole.it:6969/scrape
udp://tracker.istole.it:6969/scrape: 39 seeds
Tracker up, last checked 1 hour ago
38 seeds, 1 leechers, 507 downloads
udp://open.demonii.com:1337/scrape
udp://open.demonii.com:1337/scrape: 38 seeds
Tracker down, last checked 1 hour ago
0 seeds, 0 leechers, 0 downloads
http://genesis.1337x.org/scrape
http://genesis.1337x.org/scrape: 0 seeds
Tracker down, last checked 1 hour ago
0 seeds, 0 leechers, 0 downloads
http://exodus.1337x.org/scrape
http://exodus.1337x.org/scrape: 0 seeds
Tracker down, last checked 1 hour ago
0 seeds, 0 leechers, 0 downloads
http://torrent-download.to:5869/scrape
http://torrent-download.to:5869/scrape: 0 seeds

Directory: Ellie Goulding - Burn
Files:

Ellie Goulding - Burn/Ellie Goulding - Burn.mp4 31.72 MB
Ellie Goulding - Burn/Ellie Goulding - Burn.srt 3.28 KB

31.73 MB in 2 files. Torrent created at 2013-10-22 10:39:01.

Description:

							

Format : MPEG-4
Format profile : Base Media
Codec ID : isom
File size : 31.7 MiB
Duration : 3mn 58s
Overall bit rate mode : Variable
Overall bit rate : 1 117 Kbps
Encoded date : UTC 2013-07-08 07:35:31
Tagged date : UTC 2013-07-08 07:35:31
Writing application : Lavf54.63.104

ID : 1
Format : AVC
Format/Info : Advanced Video Codec
Format profile : Main@L3.0
Format settings, CABAC : Yes
Format settings, ReFrames : 1 frame
Codec ID : avc1
Codec ID/Info : Advanced Video Coding
Duration : 3mn 58s
Bit rate : 952 Kbps
Width : 852 pixels
Height : 480 pixels
Display aspect ratio : 16:9
Frame rate mode : Constant
Frame rate : 25.000 fps
Color space : YUV
Chroma subsampling : 4:2:0
Bit depth : 8 bits
Scan type : Progressive
Bits/(Pixel*Frame) : 0.093
Stream size : 27.4 MiB (86%)
Writing library : x264 core 129
Encoded date : UTC 2013-07-08 07:35:31
Tagged date : UTC 2013-07-08 07:35:31

ID : 2
Format : AAC
Format/Info : Advanced Audio Codec
Format profile : LC
Codec ID : 40
Duration : 3mn 58s
Duration_FirstFrame : 70ms
Bit rate mode : Variable
Bit rate : 148 Kbps
Maximum bit rate : 176 Kbps
Channel(s) : 2 channels
Channel positions : Front: L R
Sampling rate : 44.1 KHz
Compression mode : Lossy
Stream size : 4.20 MiB (13%)
Encoded date : UTC 2013-07-08 07:35:31
Tagged date : UTC 2013-07-08 07:35:31
						

info_hash: aee5cb5437935e48f9661657e66fb4c0edf2b520 (?)


 

Related content from IMDB

Related torrents for 'Ellie Goulding - Burn'